#TITLE:Saikyou OX Keikaku;
#SUBTITLE:SDO China lv29 - [N]hok[Q] Simfile;
#ARTIST:MOSAIC.WAV;
#TITLETRANSLIT:;
#SUBTITLETRANSLIT:;
#ARTISTTRANSLIT:;
#CREDIT:[N]hok[Q];
#BANNER:bn.png;
#BACKGROUND:bg-1.png;
#LYRICSPATH:;
#CDTITLE:cd.png;
#MUSIC:Saikyo OX Keikaku.mp3;
#OFFSET:-0.024;
#SAMPLESTART:31.387;
#SAMPLELENGTH:19.091;
#SELECTABLE:YES;
#DISPLAYBPM:176.000;
#BPMS:0.000=176.028,1.000=175.996,2.000=176.028,3.000=175.996,5.000=176.028,6.000=175.996,7.000=122.407,7.500=313.180,8.000=122.397,8.500=313.180,9.000=122.397,9.500=313.180,10.000=122.397,10.500=313.180,11.000=176.028,12.000=122.407,12.250=313.180,12.500=175.996,13.000=122.397,13.500=313.180,14.000=175.996,15.000=122.397,15.500=313.180,16.000=176.007,17.000=175.996,19.000=176.007,20.000=175.996,22.000=176.007,23.000=175.996,24.000=176.007,25.000=175.996,27.000=176.007,28.000=175.996,30.000=176.007,31.000=122.397,31.500=313.180,32.000=176.007,33.000=175.996,35.000=176.007,36.000=122.387,36.250=313.180,36.500=175.996,38.000=176.007,39.000=122.397,39.500=313.180,40.000=176.007,41.000=175.996,43.000=176.007,44.000=175.996,46.000=176.007,47.000=175.996,48.000=122.407,48.250=313.180,48.500=176.018,49.000=175.996,50.000=175.310,51.000=176.352,52.000=122.574,52.250=314.273,52.500=176.341,53.000=175.996,54.000=176.007,55.000=122.397,55.500=313.180,56.000=176.007,57.000=175.996,59.000=176.007,60.000=175.996,62.000=176.007,63.000=175.996,64.000=122.407,64.250=313.180,64.500=176.018,65.000=175.996,66.000=122.407,66.250=313.180,66.500=175.996,67.000=176.007,68.000=122.407,68.250=313.180,68.500=175.996,70.000=176.007,71.000=175.996,72.000=122.407,72.250=313.180,72.500=176.018,73.000=122.387,73.500=313.180,74.000=122.387,74.500=313.180,75.000=176.007,76.000=175.996,78.000=176.007,79.000=175.996,80.000=176.007,81.000=175.996,83.000=176.007,84.000=175.996,86.000=176.007,87.000=175.996,88.000=122.407,88.250=313.180,88.500=175.996,89.000=122.387,89.250=313.180,89.500=175.996,91.000=122.397,91.500=313.180,92.000=175.996,94.000=176.007,95.000=175.996,96.000=176.007,97.000=175.996,99.000=176.007,100.000=175.996,102.000=176.007,103.000=175.996,104.000=176.007,105.000=175.996,107.000=176.007,108.000=175.996,110.000=176.007,111.000=175.996,112.000=176.007,113.000=175.996,115.000=176.007,116.000=175.996,118.000=176.007,119.000=175.996,120.000=176.007,121.000=175.996,123.000=122.397,123.500=313.180,124.000=175.996,126.000=176.007,127.000=175.996,129.000=176.007,130.000=175.996,133.000=176.007,134.000=175.996,137.000=176.007,138.000=175.996,141.000=176.007,142.000=175.996,145.000=176.007,146.000=175.996,149.000=176.007,150.000=175.996,152.000=122.387,152.250=313.180,152.500=175.996,153.000=122.397,153.500=313.180,154.000=175.996,157.000=176.007,158.000=175.996,161.000=176.007,162.000=175.996,165.000=176.007,166.000=175.996,169.000=176.007,170.000=175.996,173.000=176.007,174.000=175.996,177.000=176.007,178.000=175.996,181.000=176.007,182.000=175.996,185.000=176.007,186.000=175.996,189.000=176.007,190.000=175.996,193.000=176.007,194.000=175.996,197.000=176.007,198.000=175.996,201.000=176.007,202.000=175.996,203.000=122.387,203.500=313.180,204.000=175.996,205.000=176.007,206.000=175.996,209.000=176.007,210.000=175.996,213.000=176.007,214.000=175.996,217.000=176.007,218.000=175.996,221.000=176.007,222.000=175.996,225.000=176.007,226.000=175.996,229.000=176.007,230.000=175.996,233.000=176.007,234.000=175.996,237.000=176.007,238.000=175.996,241.000=176.007,242.000=175.996,245.000=176.007,246.000=175.996,249.000=176.007,250.000=175.996,253.000=176.007,254.000=175.996,257.000=176.007,258.000=175.996,259.000=176.007,260.000=175.996,261.000=176.007,262.000=175.996,263.000=176.007,264.000=175.996,265.000=176.007,266.000=175.996,267.000=176.007,268.000=175.996,269.000=176.007,270.000=175.996,271.000=176.007,272.000=175.996,273.000=176.007,274.000=175.996,275.000=176.007,276.000=175.996,277.000=176.007,278.000=175.996,279.000=176.007,280.000=175.996,281.000=176.007,282.000=175.996,283.000=176.007,284.000=175.996,285.000=176.007,286.000=175.996,287.000=176.007,288.000=175.996,289.000=176.007,290.000=175.996,291.000=176.007,292.000=175.996,293.000=176.007,294.000=175.996,295.000=176.007,296.000=175.996,297.000=176.007,298.000=175.996,299.000=176.007,300.000=175.996,301.000=176.007,302.000=175.996,303.000=176.007,304.000=175.996,305.000=176.007,306.000=175.996,307.000=176.007,308.000=175.996,309.000=176.007,310.000=175.996,311.000=176.007,312.000=175.996,313.000=176.007,314.000=175.996,315.000=176.007,316.000=175.996,317.000=176.007,318.000=175.996,319.000=122.397,319.500=313.180,320.000=122.387,320.500=313.180,321.000=122.397,321.500=313.180,322.000=122.387,322.500=313.180,323.000=176.007,324.000=122.387,324.250=313.180,324.500=175.996,325.000=176.007,326.000=175.996,327.000=176.007,328.000=175.996,329.000=176.007,330.000=175.996;
#STOPS:;
#BGCHANGES:;
// cache tags:
#FIRSTBEAT:3.000;
#LASTBEAT:331.000;
#SONGFILENAME:Songs/sdo pack 6/Saikyo OX Keikaku/Saikyo OX Keikaku.sm;
#HASMUSIC:1;
#HASBANNER:1;
#MUSICLENGTH:113.136;
// end cache tags

//---------------dance-single - ----------------
#NOTES:
     dance-single:
     :
     Hard:
     29:
     1.000,1.000,1.000,0.398,1.000,811.000,253.000,45.000,0.000,47.000:
0000
0000
0000
0200
,
0000
0000
1010
0000
1010
0000
0000
0000
1010
0000
1010
0000
1010
0000
0000
0300
,
0011
1100
0110
1010
,
0000
0101
0101
0000
1110
0011
1101
0000
,
0110
0000
0010
0010
1001
0000
0110
0000
1001
0100
0011
0000
0010
0000
1010
0000
,
0100
0000
0011
1000
0110
0001
1100
0000
0010
0000
0001
0001
1010
0000
0110
0000
,
1001
0010
0101
0000
1010
0000
0110
0000
1001
0010
1100
0000
0001
0000
0100
0100
,
0011
1000
0100
0010
1001
0000
0110
0000
1010
0000
0101
0000
1020
0000
0000
0030
,
0101
0100
0101
0000
0110
0000
0110
0010
1000
1000
1100
0000
0110
0000
0010
0000
,
0000
0000
0000
0000
0000
0000
0000
0000
0000
0000
0000
0000
2200
0000
0000
0000
0000
0000
0000
0000
0000
0000
0000
0000
0000
0000
0000
0000
0000
0000
0000
0000
3300
0000
0000
0000
0011
0000
0000
0000
0000
0000
0000
0000
0000
0000
0000
0000
1000
0000
0000
0000
0000
0000
0010
0000
0000
0000
0000
0000
1000
0000
0000
0000
0000
0000
1000
0000
0000
0000
0000
0000
0022
0000
0000
0000
0000
0000
0000
0000
0000
0000
0000
0000
0000
0000
0000
0000
0000
0000
0000
0000
0000
0033
0000
0000
,
0100
0000
0001
0001
0001
0000
1000
1000
1000
0000
0011
0000
1010
0000
0110
0000
,
0001
0000
0100
0100
0100
0000
0010
0010
0010
0000
1000
1000
0101
0000
0110
0000
,
0000
0000
1010
0000
0110
0000
0101
0001
1100
0000
0110
0000
0011
0000
1100
0000
,
0000
0000
0001
0010
0100
0010
1000
1000
0010
0100
0001
0001
1010
0000
0000
0000
,
0001
0000
0100
0100
0100
0000
0010
0010
0010
0000
1100
0000
0110
0000
0101
0010
,
1000
0000
1000
1000
1000
0000
0001
0001
0001
0000
0100
0100
0110
0000
0110
0000
,
0000
0101
0110
0101
0000
1010
0110
1010
,
0000
0000
0011
0000
0110
0000
0010
0010
1010
0000
1000
1000
0010
0000
0110
0000
,
0000
0101
1010
0000
0110
0000
1100
0000
,
0210
0000
0001
0000
0001
0000
0000
0000
1000
0000
0000
0000
1000
0000
0000
0300
0021
0000
0000
0000
1000
0000
0000
0030
0100
0000
0000
0000
0001
0000
0000
0000
,
2010
0000
0100
0000
0001
0000
0000
0000
0010
0000
0000
0000
0100
0000
0000
0000
0010
0000
0000
0000
0001
0000
0010
3000
0100
0000
0000
0000
0010
0000
0000
0000
,
0101
0010
0101
0000
1010
0000
0110
0000
1001
0000
0011
0000
0110
0000
1100
0000
,
0000
0000
0111
0000
0000
0000
0110
0000
0110
0000
0001
0001
1010
0000
0000
0000
,
0101
0010
0101
0010
1001
0100
0010
0001
1010
0100
1010
0100
1001
0010
0100
1000
,
0101
0000
0101
0001
0110
0000
0110
0010
0101
0000
0101
0100
1010
0000
1010
0000
,
0101
0000
0101
0010
1001
0000
0000
0000
1010
0000
1010
0100
1001
0000
0100
0000
,
0010
0011
0100
0110
1001
0110
1011
0000
,
0001
0010
0100
0010
1000
0100
0010
0001
0010
0100
1000
0100
0001
0010
1000
0100
,
0010
0001
0100
0010
0001
0010
0100
1000
0010
0001
0010
0100
1000
0100
0010
1000
,
0102
0000
0010
0000
1000
0000
0100
0000
0010
0000
1000
0000
0100
0000
0010
0000
1000
0000
0100
0000
0010
0000
1000
0003
0110
0000
0000
0000
0110
0000
0000
0000
,
1001
0000
0001
0000
1010
0000
1010
0010
0101
0000
0100
0000
1110
0000
0000
0000
,
1011
0000
0001
0000
0111
0000
0100
0100
1110
0000
0010
0000
1101
0000
0000
0000
,
1001
0000
1100
0010
0101
0000
1010
0000
0101
0000
1010
0100
1001
0000
0110
0000
,
1110
0000
0010
0000
1101
0000
0001
0001
0111
0000
0100
0000
1011
0000
0000
0000
,
0010
0000
0110
0000
1000
0000
0110
0010
1001
0000
0101
0000
1100
0000
0010
0000
,
0001
0010
0100
1000
0100
0010
0001
0010
0100
1000
0100
0010
0001
0010
0100
1000
,
0010
0100
0001
0010
1000
0100
0010
1000
0001
0010
0100
0010
1000
0100
0010
0001
,
2010
0000
0100
0000
0001
0000
0010
0000
0100
0000
0001
0000
0010
0000
0100
0000
0001
0000
0010
0000
0100
0000
0001
3000
0110
0000
0000
0000
0110
0000
0000
0000
,
0000
0000
1101
0000
1101
0000
0000
0000
0111
0000
0010
0010
1110
0000
0000
0000
,
0120
0000
0000
0000
0100
0000
0000
0000
1100
0000
0000
0000
0001
0000
0001
0030
0200
0000
0000
0000
0010
0000
0000
0000
0011
0000
0000
0000
1000
0000
0000
0300
,
0002
0000
0000
0000
0010
0000
0000
0000
1100
0000
0000
0000
0010
0000
0010
0003
2000
0000
0000
0000
0100
0000
0000
0000
0110
0000
0001
0000
0010
0000
0100
3000
,
0020
0100
0000
0101
0100
0001
0001
1001
,
0000
1100
1100
0000
0101
0101
0000
0000
,
0000
0000
0000
0030
0200
0000
0000
0000
0001
0000
0000
0000
0000
0300
0001
0000
0002
0000
0000
0000
0010
0000
0000
0003
2000
0000
0000
0000
0010
0000
0000
0000
,
0100
0000
0000
0000
0010
0000
0000
0000
0000
0000
0000
0000
0100
0000
0000
0000
0010
0000
0000
0000
0100
3000
0020
0000
0001
0000
0000
0030
0200
0000
0000
0300
,
0002
0000
0000
0003
2000
0000
0000
0000
0001
0000
0000
3000
0100
0000
0000
0000
0020
0000
0000
0000
0000
0000
0000
0000
0100
0000
0000
0000
0100
0000
0000
0000
,
0000
0000
0000
0000
0100
0000
0000
0000
0100
0000
0000
0000
0000
0000
0000
0000
0001
0000
0000
0000
0001
0000
0100
0000
0000
0000
0000
0030
0001
0000
0000
0000
,
0100
0000
0010
0000
0100
0000
0010
0000
1000
0000
0001
0010
0100
0010
1000
0100
,
0001
0100
0010
0100
0001
0100
0010
0100
,
0010
0100
1000
0100
0010
0100
1000
0100
0010
0100
1000
0100
0010
0100
1000
0001
,
0200
0000
0010
0000
0001
0000
0000
0000
0010
0000
1000
0000
0000
0000
0001
0000
0001
0000
0000
0000
1000
0000
1000
0300
0020
0000
0000
0000
0000
0000
0000
0030
,
2000
0000
0100
0000
0010
0000
0001
0000
0110
0000
0001
0000
0010
0000
0100
0000
0001
0000
0010
0000
0100
0000
0010
0000
0101
0000
0010
0000
0100
0000
0010
3000
,
0002
0000
0100
0000
0010
0000
0100
0000
0010
0000
0100
0000
0010
0000
0100
0000
0010
0000
1000
0000
0100
0000
0010
0000
1000
0000
0100
0000
0010
0000
1000
0003
,
0200
0000
0010
0000
0001
0000
0010
0000
1000
0000
0000
0300
0001
0000
0001
0000
1000
0000
0100
0000
0010
0000
0100
0000
0001
0000
0010
0000
1000
0000
0100
0000
,
0010
0000
0001
0010
1100
0000
0010
0100
0011
0000
1100
0000
0110
0000
0011
0000
,
0200
0000
1000
0000
0010
0000
1000
0000
0010
0000
1000
0300
0020
0000
0001
0000
0100
0000
0001
0000
0100
0000
0001
0000
0100
0000
0001
0000
0100
0000
0001
0030
,
1000
0100
0001
0010
1100
0010
0100
0000
0001
0010
0100
1000
0011
0000
0100
0100
,
0010
0000
1000
0100
1010
0001
0010
0100
0001
0010
0100
0010
1001
0100
0010
0001
,
2000
0000
0000
0000
0110
0000
0000
0000
0110
0000
0000
0000
0000
0000
0000
3000
0101
0000
0000
0000
0012
0000
0000
0000
0110
0000
0000
0000
0000
0000
0000
0000
,
0010
0000
0100
0000
1000
0000
0010
0000
0100
0000
1000
0000
0010
0000
0100
0000
1000
0000
0010
0003
1000
0000
0100
0000
0010
0000
0001
0000
0010
0000
0100
0000
,
0001
0000
1000
0100
1010
0001
0010
0100
0001
0010
0100
0010
1001
0100
0010
0100
,
0010
0001
0100
0010
1100
0001
0010
0100
0010
1000
0100
0010
1001
0010
0100
0010
,
1000
0100
0001
0010
0101
0010
1000
0100
0010
0001
0100
0010
1000
0100
0010
0001
,
0010
0000
0200
0000
0000
0000
0000
0000
1010
0000
0000
0300
0010
0000
0002
0000
0000
0000
0000
0000
0000
0000
0000
0003
0110
0000
2000
0000
0000
0000
0000
3000
,
0100
0000
0020
0000
0101
0000
0000
0000
0000
0000
0000
0030
0201
0000
0010
0000
1000
0000
0010
0000
0001
0000
0010
0000
1000
0000
0001
0300
1010
0000
0000
0000
,
0000
0001
0001
0000
,
0010
0000
0000
0000
0000
0000
0000
0000
0100
0000
0000
0000
0000
0000
0000
0000
2000
0000
0000
0000
0110
0000
0000
3000
0110
0000
0000
0000
0000
0000
0000
0000
,
0010
0000
0100
0100
0001
0000
1000
0000
0010
0010
0100
0000
0010
0000
1000
1000
,
0100
0000
0010
0000
0001
0000
1000
0000
0020
0001
0100
0001
1000
0100
0001
0100
,
0001
0000
0000
0000
0000
0000
0000
0030
1100
0000
0000
0000
1100
0000
0000
0000
1100
0000
0000
0000
0001
0000
0100
0000
0011
0000
0000
0000
0000
0000
0000
0000
,
0110
0000
0010
0000
0110
0000
1000
1000
0011
0000
0110
0000
1001
0000
0100
0000
,
1010
0000
0010
0000
0110
0000
0001
0001
1010
0000
0110
0000
1001
0000
0010
0000
,
0101
0000
0001
0000
1010
0000
0100
0100
0011
0000
1100
0000
0110
0000
0010
0000
,
1100
0000
0100
0000
1010
0000
0010
0010
0101
0000
0011
0000
1010
0000
0100
0000
,
1001
0000
1000
0000
0110
0000
0001
0001
1010
0000
0110
0000
1010
0000
0001
0000
,
0110
0000
1000
0000
0101
0000
1000
1000
0110
0000
0001
0010
0100
0010
0001
0100
,
1010
0010
1001
0000
1010
0000
1001
0000
0110
0000
1010
0000
0100
0000
0102
0000
,
0010
0000
0000
0003
0110
0000
0000
0000
0010
0000
0000
0000
2000
0000
0100
0000
0010
0000
0000
3000
0001
0000
0010
0000
0100
0000
0000
0000
0100
0000
0000
0000
,
0011
1000
0011
0000
0110
0000
1100
1000
0110
0000
0011
0000
0100
0000
1100
0000
,
0101
0000
0000
0000
1010
0000
0000
0000
0110
0000
0001
0000
1020
0000
0100
0000
0001
0000
1000
0000
0100
0000
0001
0030
1100
0000
0000
0000
0000
0000
0000
0000
,
0101
0111
1011
1110
,
0000
0000
0111
0000
1110
0000
0000
0000
0111
0000
0010
0010
2102
0000
0000
0000
,
0000
3003
0000
0000
,
0000
0000
0000
0000
,
0000
0000
0000
0000
,
0000
0000
0000
0000
,
0000
0000
0000
0000
,
0000
0000
0000
0000
,
0000
0000
0000
0000
,
0000
0000
0000
0000
,
0000
0000
0000
0000
,
0000
0000
0000
0000
,
0000
0000
0000
0000
,
0000
0000
0000
0000
;

//---------------dance-solo - ----------------
#NOTES:
     dance-solo:
     :
     Hard:
     28:
     1.000,1.000,1.000,0.407,1.000,805.000,251.000,46.000,0.000,48.000:
000000
000000
000000
002000
,
000000
000000
010100
000000
100100
000000
000000
000000
010100
000000
010001
000000
010010
000000
000000
003000
,
000101
010010
001100
100100
,
000000
001010
001010
000000
010101
000110
011010
000000
,
100100
000000
000100
000100
010010
000000
001001
000000
010010
001000
000110
000000
000100
000000
010100
000000
,
001000
000000
100010
010000
001100
000010
010001
000000
000100
000000
000010
000010
010100
000000
001001
000000
,
010010
000100
001010
000000
010100
000000
101000
000000
010010
000100
011000
000000
000010
000000
001000
001000
,
100100
010000
001000
000100
010010
000000
001001
000000
100100
000000
001010
000000
010200
000000
000000
000300
,
001010
001000
000011
000000
001010
000000
001100
000100
010000
010000
011000
000000
100010
000000
000100
000000
,
000000
000000
000000
000000
002002
000000
000000
000000
000000
000000
000000
003003
000110
000000
000000
000000
010000
000000
000100
000000
010000
000000
010000
000000
000220
000000
000000
000000
000000
000000
000330
000000
,
001000
000000
000001
000001
000001
000000
100000
100000
100000
000000
000110
000000
010100
000000
001001
000000
,
000010
000000
010000
010000
010000
000000
000100
000100
000100
000000
010000
010000
001010
000000
000110
000000
,
000000
000000
010100
000000
001001
000000
100010
000010
011000
000000
001100
000000
000110
000000
011000
000000
,
000000
000000
000010
000100
001000
000100
010000
010000
000100
001000
000010
000010
101000
000000
000000
000000
,
000010
000000
001000
001000
001000
000000
000001
000001
000001
000000
011000
000000
001100
000000
001010
000100
,
100000
000000
100000
100000
100000
000000
000010
000010
000010
000000
001000
001000
001100
000000
000101
000000
,
000000
001010
010100
001010
000000
010100
100100
010100
,
000000
000000
000110
000000
001001
000000
000100
000100
010100
000000
010000
010000
000100
000000
100100
000000
,
000000
001010
010100
000000
001001
000000
010010
000000
,
002100
000000
000010
000000
000010
000000
000000
000000
010000
000000
000000
000000
100000
000000
000000
003000
000210
000000
000000
000000
010000
000000
000000
000300
000001
000000
000000
000000
000010
000000
000000
000000
,
120100
000000
001000
000000
000010
000000
000000
000000
000100
000000
000000
000000
100000
000000
000000
000000
001000
000000
000000
000000
000010
000000
000100
030000
000001
000000
000000
000000
000100
000000
000000
000000
,
001010
000100
001010
000000
010100
000000
001001
000000
100010
000000
000110
000000
001100
000000
011000
000000
,
000000
000000
001011
000000
000000
000000
010110
000000
001100
000000
000010
000010
011100
000000
000000
000000
,
001010
000100
001010
000100
010001
001000
000100
000010
100100
001000
010100
001000
100010
000100
001000
010000
,
001001
000000
001010
000010
010100
000000
010010
000100
100001
000000
001010
001000
010100
000000
010100
000000
,
001010
000000
001010
000100
010001
000000
000000
000000
100100
000000
010100
001000
010010
000000
001000
000000
,
000100
001010
001000
100100
010010
001100
010001
000000
,
000010
000100
001000
000100
010000
001000
000100
000010
000100
001000
010000
100000
000010
000100
010000
001000
,
000100
000010
000001
000100
000010
000100
001000
010000
000100
000010
000100
001000
010000
001000
000100
100000
,
001020
000000
000100
000000
010000
000000
001000
000000
000100
000000
010000
000000
001000
000000
000100
000000
010000
000000
001000
000000
000100
000000
010000
000030
000101
000000
000000
000000
101000
000000
000000
000000
,
010010
000000
000010
000000
010100
000000
001100
000100
110000
000000
000001
000000
010101
000000
000000
000000
,
011100
000000
000010
000000
001011
000000
001000
001000
010101
000000
000100
000000
101010
000000
000000
000000
,
010001
000000
001010
000100
100010
000000
010100
000000
001010
000000
010100
001000
010010
000000
000101
000000
,
010110
000000
000100
000000
101010
000000
000010
000010
001101
000000
001000
000000
110100
000000
000000
000000
,
000100
000000
001010
000000
010000
000000
000101
000100
010010
000000
001010
000000
101000
000000
000100
000000
,
000010
000100
001000
010000
001000
000100
000010
000100
001000
010000
001000
000100
000010
000100
001000
010000
,
000100
001000
000010
000001
010000
001000
000100
100000
000001
000010
000100
001000
010000
001000
000100
000010
,
020100
000000
001000
000000
000010
000000
000100
000000
100000
000000
000010
000000
000100
000000
001000
000000
000010
000000
000100
000000
001000
000000
000001
030000
001010
000000
000000
000000
100100
000000
000000
000000
,
000000
000000
011010
000000
001011
000000
000000
000000
001110
000000
000100
000100
011010
000000
000000
000000
,
001200
000000
000000
000000
001000
000000
000000
000000
010001
000000
000000
000000
000010
000000
000010
000300
002000
000000
000000
000000
000100
000000
000000
000000
100100
000000
000000
000000
010000
000000
000000
003000
,
000020
000000
000000
000000
000100
000000
000000
000000
010001
000000
000000
000000
000100
000000
000100
000030
020000
000000
000000
000000
001000
000000
000000
000000
100100
000000
000010
000000
000100
000000
001000
030000
,
000200
001000
000000
001010
001000
000010
000001
010010
,
000000
101000
011000
000000
001010
001001
000000
000000
,
000000
000300
002000
000000
000000
000000
000000
000000
000010
003000
000020
000000
000000
000000
000000
000030
100000
000000
000000
000000
020000
000000
000000
000000
000100
000000
000000
000000
001000
000000
000000
000000
,
000001
000000
000000
000000
000000
000000
000000
000000
000010
000000
000000
000000
000100
000000
000000
000000
001000
030000
000200
000000
000000
000000
000000
000300
002000
000000
000000
003000
000020
000000
000000
000030
,
200000
000000
000000
000000
010000
000000
000000
300000
001000
000000
000000
000000
000200
000000
000000
000000
000000
000000
000000
000000
000001
000000
000000
000000
000010
000000
000000
000000
001000
000000
000000
000000
,
000000
000000
000000
000000
010000
000000
000000
000000
001000
000000
000000
000000
000000
000000
000000
000000
000010
000000
000000
000000
000000
000000
000000
000000
100000
000000
000000
000000
000000
000000
000000
000300
,
000010
000000
000001
000000
000010
000000
000100
000000
001000
000000
000010
000100
001000
000100
010000
001000
,
000010
100000
000100
010000
000010
001000
000100
000001
,
000100
001000
010000
001000
000100
000010
000001
000010
000100
001000
010000
001000
000100
001000
010000
100000
,
002000
000000
000100
000000
000010
000000
000000
000000
100000
000000
010000
000000
000000
000000
000000
000000
000001
000000
000010
000000
010000
000000
000000
003000
000200
000000
000000
000000
000000
000000
000000
000300
,
020000
000000
001000
000000
000100
000000
000010
000000
000101
000000
000010
000000
000100
000000
001000
000000
000010
000000
000100
000000
001000
000000
000100
000000
101000
000000
000100
000000
001000
000000
000100
030000
,
000020
000000
001000
000000
000100
000000
001000
000000
010000
000000
001000
000000
000100
000000
001000
000000
100000
000000
010000
000000
001000
000000
000100
000000
010000
000000
001000
000000
000100
000000
000001
000030
,
002000
000000
000100
000000
000010
000000
000100
000000
010000
000000
000000
003000
000001
000000
000001
000000
010000
000000
001000
000000
000100
000000
001000
000000
000010
000000
000100
000000
010000
000000
001000
000000
,
000001
000000
000100
000100
010010
000000
001000
001000
000110
000000
110000
000000
001100
000000
000011
000000
,
002000
000000
010000
000000
000100
000000
010000
000000
000100
000000
010000
003000
000200
000000
000010
000000
001000
000000
000010
000000
001000
000000
000010
000000
001000
000000
000010
000000
001000
000000
000010
000300
,
010000
001000
000010
000100
101000
000100
001000
000000
000010
000100
001000
010000
000101
000000
001000
001000
,
000100
000000
010000
001000
010100
000010
000100
001000
000001
000010
000100
001000
010010
001000
000100
000010
,
020000
000000
000000
000000
100100
000000
000000
000000
001100
000000
000000
000000
000000
000000
000000
030000
001010
000000
000000
000000
000120
000000
000000
000000
000101
000000
000000
000000
000000
000000
000000
000000
,
000100
000000
001000
000000
010000
000000
100000
000000
001000
000000
010000
000000
000100
000000
001000
000000
010000
000000
000100
000030
010000
000000
001000
000000
000100
000000
000010
000000
000100
000000
001000
000000
,
000001
000000
010000
001000
010100
000010
000100
001000
000010
000100
001000
010000
000101
000010
000100
001000
,
100000
010000
001000
000100
010001
000010
000100
001000
000100
010000
001000
000100
010010
000100
001000
000100
,
010000
001000
000010
000100
001010
000100
010000
001000
000100
000010
001000
000100
010000
001000
000100
000010
,
000100
000000
002000
000000
000000
000000
000000
003000
010001
000000
000100
000000
000020
000000
000000
000000
000000
000000
000000
000000
000000
000000
000000
000030
001100
000000
020000
000000
000000
000000
000000
000000
,
000000
030000
001000
000000
000200
000000
000000
000000
101000
000000
000000
000000
000000
000000
000000
000300
002010
000000
000100
000000
010000
000000
000100
000000
000010
000000
000100
000000
010000
000000
000010
003000
,
010001
001000
000020
000030
,
000100
000000
000000
000000
000000
000000
000000
000000
001000
000000
000000
000000
000000
000000
000000
000000
020000
000000
000000
000000
001100
000000
000000
030000
100100
000000
000000
000000
000000
000000
000000
000000
,
000100
000000
001000
001000
000001
000000
010000
000000
000010
000100
001000
000000
000100
000000
100000
100000
,
010000
000000
001000
000000
000100
000000
010000
000000
000200
000010
001000
000010
010000
001000
000010
001000
,
000001
000000
000000
000000
000000
000000
000000
000300
011000
000000
000000
000000
101000
000000
000000
000000
011000
000000
000000
000000
000010
000000
001000
000000
000101
000000
000000
000000
000000
000000
000000
000000
,
001010
000000
000100
000000
101000
000000
010000
010000
000110
000000
001100
000000
010010
000000
001000
000000
,
010100
000000
000100
000000
001001
000000
000010
000010
010100
000000
101000
000000
010010
000000
000100
000000
,
001010
000000
000010
000000
010100
000000
001000
001000
000110
000000
011000
000000
001001
000000
000100
000000
,
100010
000000
000010
000000
010100
000000
010000
010000
001001
000000
000101
000000
010010
000000
001000
000000
,
010010
000000
010000
000000
100100
000000
000010
000010
010100
000000
001001
000000
010100
000000
000010
000000
,
000101
000000
010000
000000
001010
000000
010000
010000
000101
000000
000010
000100
001000
000100
000010
001000
,
100100
010010
010100
100010
001001
010010
001000
000020
,
000100
000000
000000
000030
001000
000000
000000
000000
000100
000000
000000
000000
020000
000000
001000
000000
000100
000000
000000
000000
000010
030000
000100
000000
001000
000000
000000
000000
001000
000000
000000
000000
,
000101
000000
000101
000000
010100
000000
101000
100000
000101
000000
001010
000000
000100
000000
010100
000000
,
001010
000000
000000
000000
010100
000000
000000
000000
101000
000000
000010
000000
010200
000000
001000
000000
000010
000000
010000
000000
001000
000000
000010
000300
010001
000000
000000
000000
000000
000000
000000
000000
,
001010
101010
010110
010101
,
000000
000000
001110
000000
011100
000000
000000
000000
101010
000000
000100
000100
021020
000000
000000
000000
,
000000
000000
000000
030030
,
000000
000000
000000
000000
,
000000
000000
000000
000000
,
000000
000000
000000
000000
,
000000
000000
000000
000000
,
000000
000000
000000
000000
,
000000
000000
000000
000000
,
000000
000000
000000
000000
,
000000
000000
000000
000000
,
000000
000000
000000
000000
,
000000
000000
000000
000000
,
000000
000000
000000
000000
;

//---------------dance-single - ----------------
#NOTES:
     dance-single:
     :
     Medium:
     1:
     0.986,1.000,1.000,0.159,1.000,597.000,159.000,18.000,0.000,7.000:  // measure 1
0000
0000
0000
0000
,  // measure 2
0000
0000
0101
0000
0001
0000
0000
0000
1010
0000
0000
1010
0000
0000
0101
0000
,  // measure 3
0000
0000
0010
1000
0000
0000
0000
0000
0101
0000
0000
0000
0110
0000
0000
0000
,  // measure 4
0000
1001
0000
1001
0000
0000
0010
0100
0000
0000
0000
0110
0000
0000
0000
0000
,  // measure 5
0001
0000
0010
0000
0100
0010
0100
0010
0000
1000
0000
0010
0100
0000
0001
0000
,  // measure 6
0001
0100
0000
0010
0000
0010
1000
0000
0110
0000
0010
0000
0100
0001
0000
0000
,  // measure 7
0100
0010
0000
0010
1000
0000
0001
0000
0100
0010
0000
0100
0000
0010
0000
0001
,  // measure 8
0000
0001
0000
1000
0010
0000
0010
0000
0000
0100
0010
0000
0100
0001
0000
0000
,  // measure 9
0001
0000
0001
1000
0000
0010
0000
0000
0010
0000
0010
0000
0100
0000
0000
0002
,  // measure 10
0000
0000
0000
0000
0000
0013
0000
0010
0000
0100
0000
1000
0100
0000
0000
0000
,  // measure 11
0010
0010
0000
0100
0001
0000
0101
0000
0010
1000
0000
0010
0000
0100
0001
0000
,  // measure 12
0100
0000
0010
0100
0010
0000
0000
0000
1000
0000
0000
0000
0010
0010
0000
0100
,  // measure 13
0000
0001
0000
0101
0000
0010
0000
1000
0010
0000
0000
0100
0010
0000
0100
0001
,  // measure 14
0000
0100
0000
0010
0010
0000
0000
0000
0010
0000
0000
0000
0010
0000
0100
0000
,  // measure 15
0001
0000
1000
0001
0010
0000
0100
0010
0000
0100
0001
0100
0000
0010
0000
1000
,  // measure 16
0010
0000
0100
0010
0100
0000
0000
0000
0001
0000
0000
0000
0000
0010
0000
0010
,  // measure 17
0100
0000
1000
0100
0010
0000
0010
0000
0000
0000
0100
0000
0010
0000
0001
0100
,  // measure 18
0010
0000
0010
0000
1000
0000
0100
0000
0020
0000
0000
0000
0030
0100
0000
0010
,  // measure 19
0000
0001
0000
1000
0100
0000
0000
0000
0010
0000
0000
0001
0000
0000
0000
0000
,  // measure 20
0010
0100
0000
0010
0000
1000
0000
0000
0010
0100
0000
0010
0000
0100
0000
0001
,  // measure 21
0100
0000
0010
0000
1000
0000
0010
0000
0100
0001
0000
0100
0000
0010
0100
0000
,  // measure 22
0010
0000
1000
0001
0000
0000
0100
0010
0000
0100
0010
0000
0000
0001
1000
0000
,  // measure 23
0010
0100
0000
0000
0000
0101
0000
0101
0000
0000
0000
0000
0101
0000
0000
0000
,  // measure 24
1010
0000
0010
1000
0001
0100
0000
0000
0110
0000
0110
0000
0000
1001
0000
0000
,  // measure 25
0110
0000
0100
0000
0101
0000
0010
1000
0000
1001
0000
0001
0000
0000
0000
0000
,  // measure 26
0101
0101
0000
0000
1010
0000
0000
0000
0110
0000
0110
0000
0110
0000
0000
0000
,  // measure 27
0001
1000
0000
0000
0000
0110
0000
0110
0000
0110
0000
0110
0000
0000
0000
0000
,  // measure 28
0001
0010
0100
1000
0100
0010
0000
0010
0001
0010
0000
0100
0010
0000
0110
0000
,  // measure 29
1000
0100
0010
0000
0001
0010
0100
0000
0011
0000
0111
0000
1000
0100
0010
0000
,  // measure 30
0011
0000
0001
0010
0100
1000
0100
0010
0000
0001
0010
0000
0000
0010
0000
0101
,  // measure 31
1010
0000
0100
0000
0010
0000
0010
0000
0010
0000
0000
0101
0000
0000
0000
0000
,  // measure 32
1010
0000
1010
0000
0001
0100
0000
0000
0000
0101
0000
0101
0000
0000
0000
0010
,  // measure 33
1000
1010
0000
0000
0101
0000
0101
0000
0001
1000
0010
0000
0110
0000
0000
0101
,  // measure 34
0000
0101
0000
1010
0000
1010
0000
1010
0000
0000
0101
0000
0101
0000
0000
0000
,  // measure 35
0000
0110
0000
0000
0000
0000
1010
0000
1010
0000
0101
0000
0101
0000
0000
0000
,  // measure 36
0011
0100
0000
1000
0110
0000
0001
0010
0000
0011
0100
1000
0000
0110
0000
0000
,  // measure 37
0001
0010
0000
0001
0110
0000
1000
0100
0010
0000
0011
0000
0000
0011
0100
0000
,  // measure 38
1000
0100
0010
0000
0001
0010
0001
0010
0000
0100
1000
0100
0010
0000
0010
0000
,  // measure 39
0010
0100
0000
0010
0100
0001
0000
0000
1001
0000
0000
0000
0110
0000
0000
0000
,  // measure 40
0101
0000
0001
0100
0000
0000
0010
1000
0000
0000
0000
1001
0100
0001
0000
0000
,  // measure 41
0000
0101
0000
1001
0000
0000
1001
0000
0000
0110
0000
0110
0000
0000
0000
0000
,  // measure 42
0001
0001
0000
0010
0010
0000
0010
0010
,  // measure 43
0100
0000
0100
0000
0100
0000
0010
0000
0010
0000
0000
1000
0000
0100
0000
0010
,  // measure 44
0000
0010
0000
0100
0000
0002
0000
0000
0020
0003
0000
0200
0030
0000
0000
0000
,  // measure 45
0000
0000
0000
0000
0310
0000
0010
0010
0000
0000
1000
0100
0000
0010
0000
0010
,  // measure 46
0000
0100
0000
0010
0001
0000
0010
0000
0100
0020
0000
0000
0000
0000
0000
0000
,  // measure 47
0000
0000
0000
0000
0000
0000
0130
0000
1000
0100
0000
0010
0000
0000
0010
0000
,  // measure 48
0000
0000
0002
0000
0000
0013
0000
0010
0000
0100
0000
0000
0020
0000
0000
0000
,  // measure 49
0130
1000
0100
0000
0010
0000
0000
0000
0100
0000
0010
0000
0010
0000
0000
0100
,  // measure 50
0001
0000
0000
0000
0010
0000
1100
0000
0010
0000
0010
0000
0100
0010
0000
0001
,  // measure 51
0010
0000
0100
1000
0110
0000
0020
0000
0000
0000
0000
0000
0000
0000
0030
0000
,  // measure 52
0000
0010
0000
0001
0110
0000
0110
0000
0001
0010
0000
0010
0000
0010
0000
0100
,  // measure 53
1000
0100
0010
0000
0010
0000
0010
0000
0011
0000
0100
1000
0110
0000
0001
0010
,  // measure 54
0000
0011
0100
0000
0110
0000
0010
0000
0010
0000
1011
0100
0000
0010
0001
0010
,  // measure 55
0100
1000
0110
0000
0010
0000
0011
0000
0100
0010
0000
0010
0000
0010
0000
0111
,  // measure 56
1000
0100
0010
0000
0010
0000
0002
0010
0000
0010
0003
0100
0000
0100
0010
0000
,  // measure 57
0010
0000
0011
0000
0100
1000
0100
0010
0000
0010
0001
0010
0000
0011
0000
0100
,  // measure 58
0000
1110
0000
0011
0000
0000
0011
0000
0100
0000
0110
0000
0010
0000
0100
0000
,  // measure 59
0020
0000
0000
0000
0000
0000
0000
0000
0000
0000
0000
0000
0030
0100
0100
0000
,  // measure 60
0020
0000
0000
0000
0000
0030
0010
0000
1000
0010
0000
0100
0000
0010
0000
0102
,  // measure 61
0000
0000
0010
0003
0100
1000
0100
0010
0000
0010
0000
0001
0010
0000
0100
0010
,  // measure 62
0000
0011
0000
0000
0000
0111
1000
0100
0010
0000
0000
0010
0001
0010
0000
0100
,  // measure 63
0000
1000
0100
0000
0010
0010
0000
0000
0011
0000
0000
0011
0000
0100
0000
0000
,  // measure 64
0010
0100
0000
0000
0000
0000
0000
0102
0000
0000
0003
0000
0000
2020
0000
0000
,  // measure 65
0000
3030
0000
0101
0000
0000
0000
0000
0101
0000
0000
0000
0100
0001
0000
0000
,  // measure 66
0010
0100
0000
0100
0001
0000
0000
0000
1001
0000
0000
0000
0000
0000
0000
0000
,  // measure 67
0010
0100
0000
0000
0101
0000
0000
0000
1010
0000
0000
0000
0000
0000
0000
0101
,  // measure 68
0000
0000
0000
0000
1010
0000
1010
0000
0000
0000
0101
0000
0101
0000
0000
1010
,  // measure 69
0000
1010
0000
0101
0000
0101
0000
0000
0110
0000
0010
0100
0010
0100
0000
1000
,  // measure 70
0001
0000
1001
0000
0000
0101
0001
0100
0000
0101
0000
0111
0000
0000
0000
0000
,  // measure 71
0101
0000
0110
0000
1010
0000
0000
1001
0000
0000
0000
0110
0000
0110
0000
0000
,  // measure 72
0000
1001
0000
1001
0000
0000
0110
0000
0000
0000
1001
1001
0000
0000
1101
0000
,  // measure 73
0000
0101
0101
1000
0000
1001
1001
0101
,  // measure 74
0000
0000
0101
0000
0101
0100
0000
0000
0000
1000
0010
1001
0000
1001
0000
0000
,  // measure 75
0001
0100
0000
0101
0000
0000
0101
0000
0000
0001
0100
0100
0000
0100
0001
0000
,  // measure 76
0000
0110
0000
0110
0000
0000
0110
0000
0000
1001
0000
1001
0000
0000
0000
0110
,  // measure 77
0000
0101
0000
0100
0001
0000
0000
1010
0000
0010
0000
0100
0000
0000
0010
0000
,  // measure 78
0011
0000
0000
0100
0000
0020
0000
0000
0000
0000
0030
0010
0000
0010
0000
0000
,  // measure 79
0000
0100
0010
0000
0010
0100
0000
1000
0100
0010
0000
0010
0000
0000
0100
0001
,  // measure 80
0000
0010
0100
0000
0000
1100
0020
0000
0000
0000
0000
0030
0100
0010
0000
0000
,  // measure 81
0000
0101
0000
0000
1010
0000
0000
0000
0101
0000
0000
0000
0110
0000
0000
0000
,  // measure 82
0000
0101
0000
0101
0000
0000
0000
0000
1010
0000
0000
0001
0100
0000
0000
0000
;
